Beeling GT1 (S912) Frame Drops/Crashes on Video Resume

Hello, I’m having frame drops every 6 seconds or so on this video file:

Codec H264
Bitrate 13404 kbps
Bit Depth 8
Chroma Location left
Chroma Subsampling 4:2:0
Closed Captions 1
Color Primaries bt709
Color Range tv
Color Space bt709
Color Trc bt709
Frame Rate 23.976 fps
Height 1080
Level 4.0
Profile high
Ref Frames 4
Scan Type progressive
Width 1920
Display Title 1080p (H.264)
Extended Display Title 1080p (H.264)

Also on resuming some video files, coreelec crashes and restarts, here is an example:

Codec H264
Bitrate 26355 kbps
Language English
Bit Depth 8
Chroma Location left
Chroma Subsampling 4:2:0
Frame Rate 23.976 fps
Height 1080
Level 4.1
Profile high
Ref Frames 2
Scan Type progressive
Width 1920
Display Title 1080p (H.264)
Extended Display Title 1080p (H.264)

I’m playing with the recommended settings with the plex addon, it’s not the server because it plays fine on my apple tv 4k and on the PC.

Could you share a small sample of that video?

I think it would be ilegal to share this video here, but I can send you in private message?

Here is a more detailed info on the video with frame drops:
General
Unique ID : 241925748316399674515608981488054095062 (0xB601344D02A51623E7AC22FF04ACCCD6)
Complete name : E:\Downloads\The.Office.US.S02.1080p.REPACK.AMZN.WEB-DL.DD+5.1.x264-AJP69\The.Office.US.S02E14.The.Carpet.1080p.REPACK.AMZN.WEB-DL.DD+5.1.x264-AJP69.mkv
Format : Matroska
Format version : Version 4
File size : 2.07 GiB
Duration : 21 min 6 s
Overall bit rate mode : Variable
Overall bit rate : 14.0 Mb/s
Encoded date : UTC 2018-02-28 05:01:26
Writing application : mkvmerge v17.0.0 (‘Be Ur Friend’) 64-bit
Writing library : libebml v1.3.5 + libmatroska v1.4.8

Video
ID : 1
Format : AVC
Format/Info : Advanced Video Codec
Format profile : High@L4
Format settings : CABAC / 4 Ref Frames
Format settings, CABAC : Yes
Format settings, Reference frames : 4 frames
Codec ID : V_MPEG4/ISO/AVC
Duration : 21 min 6 s
Bit rate mode : Variable
Bit rate : 13.4 Mb/s
Maximum bit rate : 15.0 Mb/s
Width : 1 920 pixels
Height : 1 080 pixels
Display aspect ratio : 16:9
Frame rate mode : Constant
Frame rate : 23.976 (24000/1001) FPS
Color space : YUV
Chroma subsampling : 4:2:0
Bit depth : 8 bits
Scan type : Progressive
Bits/(Pixel*Frame) : 0.270
Stream size : 1.98 GiB (95%)
Writing library : x264 core 148 r2623 d5b2374
Encoding settings : cabac=1 / ref=4 / deblock=1:-1:-1 / analyse=0x3:0x133 / me=umh / subme=9 / psy=1 / psy_rd=1.00:0.15 / mixed_ref=1 / me_range=24 / chroma_me=1 / trellis=2 / 8x8dct=1 / cqm=0 / deadzone=21,11 / fast_pskip=1 / chroma_qp_offset=-3 / threads=34 / lookahead_threads=5 / sliced_threads=0 / nr=150 / decimate=1 / interlaced=0 / bluray_compat=0 / constrained_intra=0 / bframes=8 / b_pyramid=2 / b_adapt=2 / b_bias=0 / direct=3 / weightb=1 / open_gop=0 / weightp=2 / keyint=120 / keyint_min=61 / scenecut=0 / intra_refresh=0 / rc_lookahead=120 / rc=crf / mbtree=1 / crf=18.0 / qcomp=0.60 / qpmin=0 / qpmax=69 / qpstep=4 / vbv_maxrate=15000 / vbv_bufsize=31250 / crf_max=0.0 / nal_hrd=vbr / filler=0 / ip_ratio=1.40 / aq=3:1.00
Default : Yes
Forced : No
Color range : Limited
Color primaries : BT.709
Transfer characteristics : BT.709
Matrix coefficients : BT.709

Audio
ID : 2
Format : E-AC-3
Format/Info : Enhanced AC-3
Commercial name : Dolby Digital Plus
Codec ID : A_EAC3
Duration : 21 min 6 s
Bit rate mode : Constant
Bit rate : 640 kb/s
Channel(s) : 6 channels
Channel layout : L R C LFE Ls Rs
Sampling rate : 48.0 kHz
Frame rate : 31.250 FPS (1536 SPF)
Compression mode : Lossy
Stream size : 96.7 MiB (5%)
Language : English
Service kind : Complete Main
Default : Yes
Forced : No

Text #1
ID : 3
Format : UTF-8
Codec ID : S_TEXT/UTF8
Codec ID/Info : UTF-8 Plain Text
Duration : 20 min 30 s
Bit rate : 90 b/s
Count of elements : 491
Stream size : 13.5 KiB (0%)
Language : English
Default : No
Forced : No

Text #2
ID : 4
Format : UTF-8
Codec ID : S_TEXT/UTF8
Codec ID/Info : UTF-8 Plain Text
Duration : 20 min 30 s
Bit rate : 94 b/s
Count of elements : 514
Stream size : 14.2 KiB (0%)
Title : SDH
Language : English
Default : No
Forced : No

You can make a sample 30sec-1minute on that it could be repeated. And upload it somewhere…

About | FAQ | Terms of Service | Privacy Policy | Legal Notice