[SOLVED] This video will crash kodi

I uploaded a test video, It will crash kodi everytime after about 30 seconds later, I don’t know why. I tried it on odroid-c2 and khadas vim3, if developers have interesting, please take a look.

General
ID : 4096 (0x1000)
Complete name : C:\Desktop\20191021 1122 - MBC_TV_Link_HD - MBC.ts
Format : MPEG-TS
File size : 57.6 MiB
Duration : 59 s 495 ms
Overall bit rate mode : Variable
Overall bit rate : 8 059 kb/s

Video
ID : 513 (0x201)
Menu ID : 1 (0x1)
Format : AVC
Format/Info : Advanced Video Codec
Format profile : High@L4
Format settings, CABAC : Yes
Format settings, RefFrames : 3 frames
Codec ID : 27
Duration : 57 s 407 ms
Bit rate mode : Variable
Bit rate : 6 626 kb/s
Maximum bit rate : 8 106 kb/s
Width : 1 920 pixels
Height : 1 080 pixels
Display aspect ratio : 16:9
Frame rate : 29.970 (30000/1001) FPS
Color space : YUV
Chroma subsampling : 4:2:0
Bit depth : 8 bits
Scan type : Interlaced
Scan type, store method : Separated fields
Scan order : Top Field First
Bits/(Pixel*Frame) : 0.107
Stream size : 45.3 MiB (79%)
Color range : Limited
Color primaries : BT.709
Transfer characteristics : BT.709
Matrix coefficients : BT.709

Audio #1
ID : 4112 (0x1010)
Menu ID : 1 (0x1)
Format : MPEG Audio
Format version : Version 1
Format profile : Layer 2
Codec ID : 4
Duration : 59 s 400 ms
Bit rate mode : Constant
Bit rate : 256 kb/s
Channel(s) : 2 channels
Sampling rate : 48.0 kHz
Compression mode : Lossy
Delay relative to video : -328 ms
Stream size : 1.81 MiB (3%)
Language : Korean
Language, more info : Clean effects

Audio #2
ID : 4113 (0x1011)
Menu ID : 1 (0x1)
Format : MPEG Audio
Format version : Version 1
Format profile : Layer 2
Codec ID : 4
Duration : 59 s 400 ms
Bit rate mode : Constant
Bit rate : 256 kb/s
Channel(s) : 2 channels
Sampling rate : 48.0 kHz
Compression mode : Lossy
Delay relative to video : -324 ms
Stream size : 1.81 MiB (3%)
Language : Korean
Language, more info : Clean effects

Audio #3
ID : 4114 (0x1012)
Menu ID : 1 (0x1)
Format : MPEG Audio
Format version : Version 1
Format profile : Layer 2
Codec ID : 4
Duration : 59 s 400 ms
Bit rate mode : Constant
Bit rate : 256 kb/s
Channel(s) : 2 channels
Sampling rate : 48.0 kHz
Compression mode : Lossy
Delay relative to video : -316 ms
Stream size : 1.81 MiB (3%)
Language : Korean
Language, more info : Clean effects

Audio #4
ID : 4115 (0x1013)
Menu ID : 1 (0x1)
Format : MPEG Audio
Format version : Version 1
Format profile : Layer 2
Codec ID : 4
Duration : 59 s 400 ms
Bit rate mode : Constant
Bit rate : 256 kb/s
Channel(s) : 2 channels
Sampling rate : 48.0 kHz
Compression mode : Lossy
Delay relative to video : -312 ms
Stream size : 1.81 MiB (3%)
Language : Korean
Language, more info : Clean effects

Text
ID : 513 (0x201)-1
Menu ID : 1 (0x1)
Format : EIA-708
Muxing mode : SCTE 128 / DTVCC Transport
Muxing mode, more info : Muxed in Video #1
Duration : 57 s 407 ms
Bit rate mode : Constant
Stream size : 0.00 Byte (0%)

I just downloaded your video file to the Downloads FOLDER on both my H96 Pro S905X Dongle running 9.2.0 and my VIM3 Pro running Nightly.

I played back the video file and it played fine on both.

You need to disclose more info on your hardware set up and OS versions.

I agree with you, I also watched the video without problems (KIII Pro Amlogic S912)

@kostaman @cubimol would you play it more times? I played it on C2(9.2.0) and vim3 basic(20191019nightbuild) ,both crashed.

I played it 3 times on my N2 (2GB) without any problem with 1019 nightly.
Make a fresh install without any addon and try it again.

OK, I will make a fresh install tomorrow and play it again.

I have watched the video three times from the internal memory (my default CoreELEC installation), three times from my external USB hard drive, and three times from my network storage via Samba. No problem!

OK, thanks,in my case it crashed everytime between 30s-60s, I will check it again tomorrow.

The only explanation I can think of, is a problem with the speed of reading/writing your flash drive, check in SSH with a stopwatch the download/upload time of a large file, for example, 500 MB from a PC.

confirmed, fresh install and playback this test video will not crash. thanks for help, I will hunt down what setup or addon caused this issue.